Monday, 2020-08-10, 1:13 PM
Welcome Guest | RSS
Main | Registration | Login
My site
MENU UTAMA
TANGGALAN
«  April 2014  »
SuMoTuWeThFrSa
  12345
6789101112
13141516171819
20212223242526
27282930
ARTIKEL GTC
POLING WEB
Rate my site
Total of answers: 44
LINK TEMAN
  • Create a free website
  • Online Desktop
  • Free Online Games
  • Video Tutorials
  • PBTI
  • PELATNAS 2012
  • WTF
  • MURTI
  • MARTIAL ART
  • Taekwondo Bali
  • KUKKIWON
  • Chek Poom/Dan You
  • Blog TKD GTC Lama
  • TAMU ONLINE

    Total online: 1
    Guests: 1
    Users: 0
    Main » 2014 » April » 17 » Скачать Алиса знает, что делать!
    10:38 AM
    Скачать Алиса знает, что делать!

    Алиса знает, что делать! скачать

    Сериал Алиса знает, что делать ...

    Скачать

    Размер: 287.5 МБ
    Сидов: неизвестно
    Личей: неизвестно
    Добавлен в базу: неизвестно
    Файлы в архиве: 08с. Алиса знает что делать.mpg

    Алиса знает, что делать! Страна: Россия, Базелевс
    Жанр: Приключения, фантастика, мультипликация, мультсериал
    Продолжительность: 00:26:00
    Год выпуска: 2013
    Перевод: Не требуется
    Русские субтитры: нет
    Режиссёр: Игорь Ковалев
    Роли озвучивали: Дарья Мельникова, Мирослава Карпович, Армен Джигарханян, Анна Ардова, Дмитрий Назаров, Алексей Колган, Ирина Гришина, Валерий Сторожик
    Описание: Фантастический мультсериал, созданный по мотивам повести Кира Булычёва «Путешествие Алисы». Любимица миллионов зрителей всех возрастов, культовая героиня Алиса Селезнёва возвращается на телеэкраны в 3D формате! Это история о подростках будущего, которые всё больше задумываются о мире, его закономерностях и неожиданностях. 2093-й год, дети всё так же посещают школу, вот только добираются туда на летающих роликах, и учитель у них по всем предметам один, к тому же, это робот. А за стенами школы — удивительный мир, полный космических путешествий, увлекательных открытий и, конечно, коварных злодеев межгалактического масштаба, остановить которых по силам только неунывающей и отважной Алисе! Путешествуя по галактике, герои столкнутся не только с вселенским злом, но и обретут настоящих друзей. У Алисы появится домашний любимец с планеты Верум — истинокс по кличке Пупер, который очень привяжется к своей хозяйке и станет её постоянным спутником. Он — представитель редкого вида животных, обладающих даром коллективного предсказания. Дружба и предательство, первая любовь и одиночество — главные герои столкнутся с различными жизненными ситуациями и научатся их преодолевать. В каждой серии их ждет новое опасное приключение.-Описание серий:
    8 серия. Песенный поединок-Доп. информация:
    -Качество: DVB
    Формат: MPEG
    Видео кодек: MPEG2
    Аудио кодек: MPEG Audio (Version 1) (Layer 2)
    Видео: MPEG 2, 720 x 576, 25 fps, 1300 kbps
    Аудио: MPEG Audio (Version 1) (Layer 2), 2 Ch, 48 KHz, 192 kbps- Все раздачи мультсериала - MediaInfo General
    Complete name : G:\08с. Алиса знает что делать.mpg
    Format : MPEG-PS
    File size : 287 MiB
    Duration : 25mn 59s
    Overall bit rate mode : Variable
    Overall bit rate : 1 546 Kbps
    Writing library : (c) 1998-2010 Womble Multimedia, Inc. / MPEG Video Wizard DVD 5.0.0.114 (01/2010) / Apr 20 2010
    Video
    ID : 224 (0xE0)
    Format : MPEG Video
    Format version : Version 2
    Format profile : Main@Main
    Format settings, BVOP : Yes
    Format settings, Matrix : Custom
    Format settings, GOP : Variable
    Duration : 25mn 59s
    Bit rate mode : Variable
    Bit rate : 1 323 Kbps
    Maximum bit rate : 15.0 Mbps
    Width : 720 pixels
    Height : 576 pixels
    Display aspect ratio : 4:3
    Frame rate : 25.000 fps
    Standard : PAL
    Color space : YUV
    Chroma subsampling : 4:2:0
    Bit depth : 8 bits
    Scan type : Interlaced
    Scan order : Top Field First
    Compression mode : Lossy
    Bits/(Pixel*Frame) : 0.128
    Time code of first frame : 00:00:00:00
    Time code source : Group of pictures header
    Stream size : 246 MiB (86%)
    Source encoded stream size : (c) 1998-2010 Womble Multimedia, Inc. / MPEG Video Wizard DVD 5.0.0.114 (01/2010) / Apr 20 2010
    Writing library : (c) 1998-2010 Womble Multimedia, Inc. / MPEG Video Wizard DVD 5.0.0.114 (01/2010) / Apr 20 2010
    Audio
    ID : 192 (0xC0)
    Format : MPEG Audio
    Format version : Version 1
    Format profile : Layer 2
    Duration : 25mn 59s
    Bit rate mode : Constant
    Bit rate : 192 Kbps
    Channel(s) : 2 channels
    Sampling rate : 48.0 KHz
    Compression mode : Lossy
    Delay relative to video : -80ms
    Stream size : 35.7 MiB (12%)
    Menu

    Скачать файл через файлообменник: Скачать

    Скачать через торрент: Скачать торрент

    Тэги: Алиса знает что делать - YouTube, Сериал «Алиса знает, что делать, Алиса знает, что делать! Серия 1, Алиса знает, что делать, Алиса знает, что делать, Алиса знает, что делать, алиса знает что делать смотреть, Сериал Алиса знает, что делать, Алиса знает, что делать! (Сериал, Майдановцы захватили Ровенскую

    Views: 331 | Added by: GTC | Rating: 0.0/0
    Total comments: 0
    Only registered users can add comments.
    [ Registration | Login ]
    Copyright GTC Gianyar Taekwondo Centre © 2020