Monday, 2020-08-10, 2:08 PM
Welcome Guest | RSS
Main | Registration | Login
My site
MENU UTAMA
TANGGALAN
«  April 2014  »
SuMoTuWeThFrSa
  12345
6789101112
13141516171819
20212223242526
27282930
ARTIKEL GTC
POLING WEB
Rate my site
Total of answers: 44
LINK TEMAN
  • Create a free website
  • Online Desktop
  • Free Online Games
  • Video Tutorials
  • PBTI
  • PELATNAS 2012
  • WTF
  • MURTI
  • MARTIAL ART
  • Taekwondo Bali
  • KUKKIWON
  • Chek Poom/Dan You
  • Blog TKD GTC Lama
  • TAMU ONLINE

    Total online: 1
    Guests: 1
    Users: 0
    Main » 2014 » April » 17 » Скачать Ветер крепчает
    11:20 AM
    Скачать Ветер крепчает

    Ветер крепчает скачать

    Ветер крепчает/Kaze tachinu - Фильмы ...

    Скачать

    Размер: 1.5 ГБ
    Сидов: 5
    Личей: неизвестно
    Добавлен в базу: неизвестно
    Файлы в архиве: Veter.krepchaet.2013.D.DVDRip_[New-Team]_by_avproh.avi

    Страна: Япония / Buena Vista Home Entertainment, Hakuhodo DY Media Partners, KDDI Corporation...
    Жанр: аниме, мультфильм, драма, биография
    Год выпуска: 2013
    Продолжительность: 02:01:32
    Перевод: Профессиональный (дублированный)
    Cубтитры: нет
    Оригинальная аудиодорожка: нет
    Режиссер: Хаяо Миядзаки / Hayao Miyazaki
    В ролях: Джозеф Гордон-Левитт, Джон Красински, Эмили Блант, Мартин Шорт, Стэнли Туччи, Мэнди Пэтинкин, Мэй Уитман, Вернер Херцог, Дженнифер Грей, Уильям Х. Мэйси...
    Роли дублировали: Борис Алексеев, Василий Марков, Елена Симанович, Андрей Андреев, Вячеслав Бухтояров...
    Описание: Мальчик Дзиро мечтает о полетах и красивых самолетах, способных обогнать ветер. Вот только пилотом ему не стать — он с рождения близорук. Но Дзиро не расстается с мечтой о небе, он начинает придумывать идеальный самолет и со временем становится одним из лучших авиаконструкторов мира. На пути к успеху он не только встретит много интересных людей, переживет Великое землетрясение в Токио и жестокие войны, но и обретет любовь своей жизни — прекрасную Наоко.
    Качество: DVDRip / DVD9 R5
    Формат: AVI
    Видео: 720x384 (1.85:1), 25.000 fps, XviD ~ 1515 kbps avg, 0.219 bit/pixel
    Аудио: 48 kHz, Dolby AC3, 2 ch, 192 kbps, русский
    Раздача от:
    MediaInfo
    Общее
    Полное имя : Veter.krepchaet.2013.D.DVDRip_[New-Team]_by_avproh.avi
    Формат : AVI
    Формат/Информация : Audio Video Interleave
    Размер файла : 1,46 Гбайт
    Продолжительность : 2 ч. 1 м.
    Общий поток : 1717 Кбит/сек
    Программа кодирования : VirtualDubMod 1.5.10.3 | www.virtualdub-fr.org || (build 2550/release)
    Библиотека кодирования : VirtualDubMod build 2550/release
    Видео
    Идентификатор : 0
    Формат : MPEG-4 Visual
    Профиль формата : Advanced Simple@L5
    Параметр BVOP формата : 1
    Параметр QPel формата : Нет
    Параметр GMC формата : Без точки перехода
    Параметр матрицы формата : Выборочная
    Идентификатор кодека : XVID
    Идентификатор кодека/Подсказка : XviD
    Продолжительность : 2 ч. 1 м.
    Битрейт : 1515 Кбит/сек
    Ширина : 720 пикселей
    Высота : 384 пикселя
    Соотношение сторон : 1,85:1
    Частота кадров : 25,000 кадров/сек
    Цветовое пространство : YUV
    Субдискретизация насыщенности : 4:2:0
    Битовая глубина : 8 бит
    Тип развёртки : Прогрессивная
    Метод сжатия : С потерями
    Бит/(Пиксели*Кадры) : 0.219
    Размер потока : 1,29 Гбайт (88%)
    Библиотека кодирования : XviD 73
    Аудио
    Идентификатор : 1
    Формат : AC-3
    Формат/Информация : Audio Coding 3
    Расширение режима : CM (complete main)
    Параметр Endianness формата : Big
    Идентификатор кодека : 2000
    Продолжительность : 2 ч. 1 м.
    Вид битрейта : Постоянный
    Битрейт : 192 Кбит/сек
    Каналы : 2 канала
    Расположение каналов : Front: L R
    Частота : 48,0 КГц
    Битовая глубина : 16 бит
    Метод сжатия : С потерями
    Размер потока : 167 Мбайт (11%)
    Выравнивание : Разделение по промежуткам
    Продолжительность промежутка : 40 мс. (1,00 видеокадр)
    Время предзагрузки промежутка : 500 мс.
    Скриншоты:

    В основу сюжета произведения легла одноимённая манга авторства самого Миядзаки, публиковавшаяся в журнале Model Graphix в 2009 году, рассказывающая о японском конструкторе Дзиро Хорикоси, известном своей работой над истребителями Mitsubishi A5M и Mitsubishi A6M Zero. Также источником сюжета является рассказ писателя Тацуо Хори «Ветер крепчает», написанный в 1936-37 годах. Название рассказа является цитатой одной из строк стихотворения Поля Валери «Кладбище у моря»: «Крепчает ветер!.. Значит — жить сначала!».

    Скачать файл через файлообменник: Скачать

    Скачать через торрент: Скачать торрент

    Тэги: Мультфильм Ветер крепчает, Ветер крепчает, Ветер крепчает - отзывы о фильме, «Ветер крепчает», Ветер крепчает — Википедия, Ветер крепчает, Ветер крепчает, Ветер крепчает/Kaze tachinu - Фильмы, Ветер крепчает 2014 смотреть онлайн, Ветер крепчает - шедевр от

    Views: 295 | Added by: GTC | Rating: 0.0/0
    Total comments: 0
    Only registered users can add comments.
    [ Registration | Login ]
    Copyright GTC Gianyar Taekwondo Centre © 2020